Page 38 of 41 FirstFirst ... 283637383940 ... LastLast
Results 371 to 380 of 401
  1. #371
    Senior Member
    Join Date
    Nov 2009
    Location
    Sweden
    Posts
    463

    Re: Markus Schulz Solo: Live From Amnesia in Ibiza (15-09-2009)

    I think someone have to make a new cue file as the one i have from cuenation is a bit out of date now..
    "a few MS standards and then we are into the rabbit hole... hang on"

  2. #372
    Junior Member
    Join Date
    Jan 2009
    Posts
    8

    Re: Markus Schulz Solo: Live From Amnesia in Ibiza (15-09-2009)

    Quote Originally Posted by ed0ni
    I think I have to make a new cue file as the one i have from cuenation is a bit out of date now..
    fixed

  3. #373
    Senior Member
    Join Date
    Nov 2009
    Location
    Sweden
    Posts
    463

    Re: Markus Schulz Solo: Live From Amnesia in Ibiza (15-09-2009)

    Quote Originally Posted by ThaMaestro
    Quote Originally Posted by ed0ni
    I think I have to make a new cue file as the one i have from cuenation is a bit out of date now..
    fixed
    I dont have any program for that but maybe i can use notepad
    Another problem is that the number of tracks and "starttimes" for i guess every track before Ronski Speed - Overfloat have changed. In the current cue file i have 9 tracks before Overfloat and now we only have 6 tracks before Overfloat..
    "a few MS standards and then we are into the rabbit hole... hang on"

  4. #374
    Senior Member jambo's Avatar
    Join Date
    Mar 2010
    Posts
    270

    Re: Markus Schulz Solo: Live From Amnesia in Ibiza (15-09-20

    I just made a proper CUE file based on the newest track lists I could find =]

    Code:
    TITLE "Live @ Amnesia in San Rafael, Ibiza, Spain 2009 (with Markus Schulz)"
    PERFORMER "Markus Schulz"
    FILE Markus_Schulz_-_Amnesia_Ibiza_2009.09.15.mp3 MP3
      TRACK 01 AUDIO
        TITLE Intro
        PERFORMER "Markus Schulz - Live @ Amnesia"
        INDEX 01 00:00:00
      TRACK 02 AUDIO
        TITLE "Progression Part 1"
        PERFORMER Dakota
        INDEX 01 00:08:22
      TRACK 03 AUDIO
        TITLE ID
        PERFORMER ID
        INDEX 01 22:50:61
      TRACK 04 AUDIO
        TITLE ID
        PERFORMER ID
        INDEX 01 29:39:64
      TRACK 05 AUDIO
        TITLE "Dark Skies"
        PERFORMER Subarctica
        INDEX 01 36:34:66
      TRACK 06 AUDIO
        TITLE "Planetaria (Steve Mac's Smack Remix)"
        PERFORMER "Wally Lopez & Zoo Brazil"
        INDEX 01 40:48:47
      TRACK 07 AUDIO
        TITLE "Pulverturm (M.I.K.E.'s Clubland Remix)"
        PERFORMER "Niels van Gogh vs. Eniac"
        INDEX 01 46:17:41
      TRACK 08 AUDIO
        TITLE ID
        PERFORMER ID
        INDEX 01 50:07:34
      TRACK 09 AUDIO
        TITLE Overfloat
        PERFORMER "Ronski Speed"
        INDEX 01 54:34:25
      TRACK 10 AUDIO
        TITLE "Mirage (EDX's Sunshine Remix)"
        PERFORMER "Passenger 10"
        INDEX 01 60:00:41
      TRACK 11 AUDIO
        TITLE Lima
        PERFORMER Dakota
        INDEX 01 65:45:27
      TRACK 12 AUDIO
        TITLE "Off On The West End Girls (Markus Schulz Mashup)"
        PERFORMER "Cirez D vs. Pet Shop Boys"
        INDEX 01 72:03:27
      TRACK 13 AUDIO
        TITLE "Johnny The Fox (Barnes & Heatcliff Remix)"
        PERFORMER Dakota
        INDEX 01 77:03:39
      TRACK 14 AUDIO
        TITLE Chinook
        PERFORMER Dakota
        INDEX 01 83:14:07
      TRACK 15 AUDIO
        TITLE "Monday Groove"
        PERFORMER "Roland Klinkenberg"
        INDEX 01 90:06:53
      TRACK 16 AUDIO
        TITLE Boracay
        PERFORMER "Blake Jarrell"
        INDEX 01 95:59:59
      TRACK 17 AUDIO
        TITLE "Forget About Us (Barnes & Heatcliff Remix)"
        PERFORMER Lentos
        INDEX 01 101:47:19
      TRACK 18 AUDIO
        TITLE "Falling Meich (Markus Schulz Mashup)"
        PERFORMER "Dirty South & Sebastian Ingrosso vs. Julie Thompson"
        INDEX 01 108:10:32
      TRACK 19 AUDIO
        TITLE "Cardboard Box (Markus Schulz Edit)"
        PERFORMER Skytech
        INDEX 01 114:18:10
      TRACK 20 AUDIO
        TITLE "Brace Yourself"
        PERFORMER "Jochen Miller"
        INDEX 01 117:13:39
      TRACK 21 AUDIO
        TITLE "You (Club Mix)"
        PERFORMER "Robert Burian feat. Zdenka Predna"
        INDEX 01 123:33:01
      TRACK 22 AUDIO
        TITLE Comet
        PERFORMER Skytech
        INDEX 01 130:21:67
      TRACK 23 AUDIO
        TITLE "International Language"
        PERFORMER "Element One"
        INDEX 01 134:57:41
      TRACK 24 AUDIO
        TITLE "Meant To Be Free (Cramp Remix)"
        PERFORMER "Anton Firtich feat. Victoria Mazze"
        INDEX 01 140:53:60
      TRACK 25 AUDIO
        TITLE "Full Tiltin (Joint Operations Centre Remix)"
        PERFORMER "Timmy & Tommy"
        INDEX 01 147:00:38
      TRACK 26 AUDIO
        TITLE "Pull The Trigger (Joint Operations Centre Remix)"
        PERFORMER "Axel Karakasis"
        INDEX 01 151:48:10
      TRACK 27 AUDIO
        TITLE "Insomnia (Remix)"
        PERFORMER Faithless
        INDEX 01 157:07:67
      TRACK 28 AUDIO
        TITLE "Dressed In White (Markus Schulz Coldharbour Remix)"
        PERFORMER "Jester Music feat. Lavoie"
        INDEX 01 161:55:38
      TRACK 29 AUDIO
        TITLE Bastillon
        PERFORMER "Sander van Doorn"
        INDEX 01 167:11:53
      TRACK 30 AUDIO
        TITLE "On A Metropolis Day (Mÿon & Shane 54 Mashup)"
        PERFORMER "Above & Beyond pres. OceanLab vs. Gareth Emery"
        INDEX 01 173:01:41
      TRACK 31 AUDIO
        TITLE "Faces (Ben Gold Remix) (Markus Schulz Big Room Reconstruction)"
        PERFORMER "Andy Moor & Ashley Wallbridge feat. Meighan Nealon"
        INDEX 01 179:27:26
      TRACK 32 AUDIO
        TITLE "Synergy (Markus Schulz Big Room Reconstruction)"
        PERFORMER "Ummet Ozcan vs. W&W"
        INDEX 01 184:15:42
      TRACK 33 AUDIO
        TITLE "I'm Not Alone (Remix)"
        PERFORMER "Calvin Harris"
        INDEX 01 189:27:12
      TRACK 34 AUDIO
        TITLE "F.A.V. Rain (Armin van Buuren Mashup)"
        PERFORMER "Armin van Buuren vs. Cosmic Gate"
        INDEX 01 195:21:37
      TRACK 35 AUDIO
        TITLE "Into Something (Fall Down Mix)"
        PERFORMER "Richard Durand"
        INDEX 01 201:15:63
      TRACK 36 AUDIO
        TITLE "Vision (Lentos Dub)"
        PERFORMER "DJ Observer & Daniel Heatcliff feat. Madeline Rison"
        INDEX 01 206:01:07
      TRACK 37 AUDIO
        TITLE "Inside Of You (Cosmic Gate Remix)"
        PERFORMER "Fabio XB & Ronnie Play feat. Gabriel Cage"
        INDEX 01 212:48:45
      TRACK 38 AUDIO
        TITLE M.M.E.
        PERFORMER "Sied van Riel"
        INDEX 01 218:00:30
      TRACK 39 AUDIO
        TITLE "The Perspective Space (Markus Schulz Mashup)"
        PERFORMER "Rex Mundi vs. Ronski Speed"
        INDEX 01 223:12:14
      TRACK 40 AUDIO
        TITLE "Here Comes 747 (Markus Schulz Mashup)"
        PERFORMER "Dr. Willis & Junkyard Dog vs. Dean Newton & Huggy"
        INDEX 01 230:30:58
      TRACK 41 AUDIO
        TITLE Bliksem
        PERFORMER "Purple Haze"
        INDEX 01 235:28:30
      TRACK 42 AUDIO
        TITLE "Nothing At All (Elevation Remix)"
        PERFORMER "Rex Mundi feat. Susana"
        INDEX 01 238:36:15
      TRACK 43 AUDIO
        TITLE "Daydream (Ronski Speed Remix) (Markus Schulz Edit)"
        PERFORMER "Markus Schulz feat. Andy Moor"
        INDEX 01 244:43:02
      TRACK 44 AUDIO
        TITLE "Do You Dream? (Uplifting Vocal Mix)"
        PERFORMER "Markus Schulz"
        INDEX 01 247:59:69
      TRACK 45 AUDIO
        TITLE "Lost Vocal Connection (Markus Schulz Mashup)"
        PERFORMER "Jochen Miller vs. Armin van Buuren"
        INDEX 01 253:09:19
      TRACK 46 AUDIO
        TITLE Advanced
        PERFORMER "Marcel Woods"
        INDEX 01 259:28:59
      TRACK 47 AUDIO
        TITLE "Sin City (Rex Mundi Remix) (Markus Schulz Edit)"
        PERFORMER Dakota
        INDEX 01 265:07:73
      TRACK 48 AUDIO
        TITLE Boundary
        PERFORMER "Virtual Vault"
        INDEX 01 269:42:15
      TRACK 49 AUDIO
        TITLE "Find Yourself (Cosmic Gate Remix)"
        PERFORMER "John O'Callaghan feat. Sarah Howells"
        INDEX 01 274:23:33
      TRACK 50 AUDIO
        TITLE Insider
        PERFORMER "Beat Service"
        INDEX 01 282:17:23
      TRACK 51 AUDIO
        TITLE "Direct Dizko (Sander van Doorn Remix)"
        PERFORMER "Club Scene Investigators"
        INDEX 01 287:19:50
      TRACK 52 AUDIO
        TITLE "The New World"
        PERFORMER "Markus Schulz"
        INDEX 01 294:21:43
      TRACK 53 AUDIO
        TITLE Automanual
        PERFORMER "Marco V"
        INDEX 01 299:45:14
      TRACK 54 AUDIO
        TITLE Spacewalk
        PERFORMER Phynn
        INDEX 01 305:29:74
      TRACK 55 AUDIO
        TITLE "Grudge Match (Jordan Suckley Remix)"
        PERFORMER "Greg Downey"
        INDEX 01 312:52:69
      TRACK 56 AUDIO
        TITLE "Fly To Colors (Markus Schulz Big Room Remix)"
        PERFORMER "Markus Schulz"
        INDEX 01 318:02:24
      TRACK 57 AUDIO
        TITLE "Shana Can't Sleep (Black Army Mashup)"
        PERFORMER "Above & Beyond vs. Mr. Pit"
        INDEX 01 324:07:67
      TRACK 58 AUDIO
        TITLE "Air For Life (Markus Schulz Big Room Reconstruction)"
        PERFORMER "Above & Beyond vs. Andy Moor"
        INDEX 01 330:41:51
      TRACK 59 AUDIO
        TITLE "Perception (Markus Schulz Remix)"
        PERFORMER "Cass & Slide"
        INDEX 01 337:18:34
      TRACK 60 AUDIO
        TITLE Elektra
        PERFORMER "Super8 & Tab"
        INDEX 01 347:13:53
      TRACK 61 AUDIO
        TITLE "For An Angel 2009"
        PERFORMER "Paul van Dyk"
        INDEX 01 353:35:63
      TRACK 62 AUDIO
        TITLE "Café Del Mar (Original Three 'N' One Mix)"
        PERFORMER "Energy 52"
        INDEX 01 357:29:47
      TRACK 63 AUDIO
        TITLE "Airwave (Remix)"
        PERFORMER "Rank 1"
        INDEX 01 364:20:50
      TRACK 64 AUDIO
        TITLE "Seven Cities (Armin van Buuren Remix)"
        PERFORMER "Solar Stone"
        INDEX 01 370:14:69
      TRACK 65 AUDIO
        TITLE "For An Angel At All (Markus Schulz Mashup)"
        PERFORMER "Paul van Dyk vs. Rex Mundi feat. Susana"
        INDEX 01 377:12:49
    Enjoy
    Coldharbour Faithful

  5. #375
    Administrator
    Join Date
    Aug 2008
    Location
    Ireland
    Posts
    4,942

    Re: Markus Schulz Solo: Live From Amnesia in Ibiza (15-09-20

    Just to give you guys a heads up, Afterhours FM will be replaying this set in full later today, beginning at 3pm EST | 8pm UK | 9pm CET.

    It'll hopefully provide you with some memories of the special set last summer, and a good warmup ahead of this year's broadcast, which will be happening at some point in the coming weeks.

  6. #376
    Senior Member
    Join Date
    Sep 2008
    Location
    Derbyshire UK
    Posts
    451

    Re: Markus Schulz Solo: Live From Amnesia in Ibiza (15-09-20

    Quote Originally Posted by ImpactPlayaz
    Just to give you guys a heads up, Afterhours FM will be replaying this set in full later today, beginning at 3pm EST | 8pm UK | 9pm CET.

    It'll hopefully provide you with some memories of the special set last summer, and a good warmup ahead of this year's broadcast, which will be happening at some point in the coming weeks.
    Tuned in

    Anyone gonna be in chat later?

  7. #377
    Senior Member
    Join Date
    Jan 2010
    Posts
    546

    Re: Markus Schulz Solo: Live From Amnesia in Ibiza (15-09-20

    Quote Originally Posted by ImpactPlayaz
    Just to give you guys a heads up, Afterhours FM will be replaying this set in full later today, beginning at 3pm EST | 8pm UK | 9pm CET.

    It'll hopefully provide you with some memories of the special set last summer, and a good warmup ahead of this year's broadcast, which will be happening at some point in the coming weeks.
    nice opening of the set

  8. #378
    Senior Member
    Join Date
    Oct 2008
    Location
    London, UK
    Posts
    2,461

    Re: Markus Schulz Solo: Live From Amnesia in Ibiza (15-09-20

    Quote Originally Posted by Hayley
    Tuned in

    Anyone gonna be in chat later?
    Evening Hayley

    As for me, am on msn, just too busy atm. :?

  9. #379
    Junior Member
    Join Date
    Jan 2009
    Posts
    8

    Re: Markus Schulz Solo: Live From Amnesia in Ibiza (15-09-20

    Quote Originally Posted by ImpactPlayaz
    Just to give you guys a heads up, Afterhours FM will be replaying this set in full later today, beginning at 3pm EST | 8pm UK | 9pm CET.

    It'll hopefully provide you with some memories of the special set last summer, and a good warmup ahead of this year's broadcast, which will be happening at some point in the coming weeks.
    Hopefully I'll once find the ID of one of the first tracks (I think it's ID #2, the one starting from 22 mins) . Do you perhaps have any idea ImpactPlayaz?

  10. #380
    Senior Member
    Join Date
    Oct 2008
    Location
    London, UK
    Posts
    2,461

    Re: Markus Schulz Solo: Live From Amnesia in Ibiza (15-09-20

    Meant to be free now, next is full tiltin!!! :twisted: :twisted: :twisted:
    g00sebumps \0/

Similar Threads

  1. Markus Schulz Solo: Live From Amnesia in Ibiza (10-08-2010)
    By ImpactPlayaz in forum Other Markus Schulz Tracklists
    Replies: 1440
    Last Post: 25-04-11, 08:16 PM
  2. Markus 8 Hour Solo Set Amnesia (Ibiza) 10-08-10 !!!
    By Gullie78 in forum Markus Schulz Gigs
    Replies: 6
    Last Post: 25-08-10, 02:45 PM

Posting Permissions

  • You may not post new threads
  • You may not post replies
  • You may not post attachments
  • You may not edit your posts
  •